<?xml version="1.0" standalone="no"?>
<!DOCTYPE svg PUBLIC "-//W3C//DTD SVG 1.1//EN" "http://www.w3.org/Graphics/SVG/1.1/DTD/svg11.dtd" >
<svg xmlns="http://www.w3.org/2000/svg">
<metadata>Generated by IcoMoon</metadata>
<defs>
<font id="Local-Icons" horiz-adv-x="1024">
<font-face units-per-em="1024" ascent="960" descent="-64" />
<missing-glyph horiz-adv-x="1024" />
<glyph unicode="&#x20;" horiz-adv-x="512" d="" />
<glyph unicode="&#xe900;" glyph-name="arrow-down" d="M26.464 736.613c35.285 35.285 92.494 35.285 127.778 0l357.758-357.758 357.754 357.757c35.289 35.285 92.499 35.285 127.779 0 35.289-35.285 35.289-92.493 0-127.779l-421.645-421.646c-35.285-35.285-92.493-35.285-127.778 0.001l-421.647 421.647c-35.285 35.285-35.285 92.493 0 127.778z" />
<glyph unicode="&#xe901;" glyph-name="arrow-left" d="M15.29 424.881c-20.387 20.387-20.387 53.44 0 73.828l332.224 332.224c20.387 20.387 53.441 20.387 73.828 0s20.387-53.441 0-73.827l-243.106-243.106h793.564c28.831 0 52.201-23.372 52.201-52.204s-23.37-52.204-52.201-52.204h-793.564l243.106-243.106c20.387-20.389 20.387-53.441 0-73.83-20.387-20.383-53.441-20.383-73.828 0l-332.224 332.226z" />
<glyph unicode="&#xe902;" glyph-name="arrow-right" d="M1008.708 424.881c20.389 20.387 20.389 53.44 0 73.828l-332.22 332.224c-20.389 20.387-53.441 20.387-73.83 0s-20.389-53.441 0-73.827l243.109-243.106h-793.563c-28.831 0-52.204-23.372-52.204-52.204s23.372-52.204 52.204-52.204h793.563l-243.109-243.106c-20.389-20.389-20.389-53.441 0-73.83 20.389-20.383 53.441-20.383 73.83 0l332.22 332.226z" />
<glyph unicode="&#xe903;" glyph-name="arrows" d="M385.464 216.136c13.33 13.329 34.942 13.329 48.272 0l78.264-78.264 78.264 78.264c13.33 13.329 34.942 13.329 48.272 0 13.329-13.329 13.329-34.942 0-48.271l-102.4-102.4c-13.33-13.329-34.942-13.329-48.272 0l-102.4 102.4c-13.33 13.329-13.33 34.942 0 48.271zM385.464 679.864c13.33-13.33 34.942-13.33 48.272 0l78.264 78.264 78.264-78.264c13.33-13.33 34.942-13.33 48.272 0 13.329 13.33 13.329 34.942 0 48.272l-102.4 102.4c-13.33 13.33-34.942 13.33-48.272 0l-102.4-102.4c-13.33-13.33-13.33-34.942 0-48.272z" />
<glyph unicode="&#xe904;" glyph-name="arrow-up" d="M26.464 187.19c35.285-35.285 92.494-35.285 127.778 0l357.758 357.758 357.754-357.756c35.289-35.285 92.499-35.285 127.779 0 35.289 35.285 35.289 92.493 0 127.778l-421.645 421.646c-35.285 35.285-92.493 35.285-127.778 0l-421.647-421.647c-35.285-35.285-35.285-92.493 0-127.779z" />
<glyph unicode="&#xe905;" glyph-name="calendar" d="M593.905 543.333c-7.475 0-10.669-5.782-10.669-9.321s3.194-9.322 10.669-9.322c7.47 0 10.664 5.782 10.664 9.322s-3.194 9.321-10.664 9.321zM631.998 534.012c0-21.782-17.052-39.441-38.093-39.441s-38.098 17.658-38.098 39.441c0 21.782 17.057 39.44 38.098 39.44s38.093-17.658 38.093-39.44zM593.905 371.785c-7.475 0-10.669-5.783-10.669-9.323 0-3.535 3.194-9.318 10.669-9.318 7.47 0 10.664 5.783 10.664 9.318 0 3.54-3.194 9.323-10.664 9.323zM631.998 362.462c0-21.782-17.052-39.439-38.093-39.439s-38.098 17.657-38.098 39.439c0 21.787 17.057 39.444 38.098 39.444s38.093-17.657 38.093-39.444zM759.618 543.333c-7.47 0-10.664-5.782-10.664-9.321s3.194-9.322 10.664-9.322c7.475 0 10.669 5.782 10.669 9.322s-3.194 9.321-10.669 9.321zM797.716 534.012c0-21.782-17.057-39.441-38.098-39.441-21.036 0-38.093 17.658-38.093 39.441s17.057 39.44 38.093 39.44c21.041 0 38.098-17.658 38.098-39.44zM672.422-31.447l19.397-18.042c-7.324-7.875-17.291-12.083-27.448-12.083-1.258 0-2.511 0.073-3.769 0.2-1.263-0.132-2.545-0.2-3.842-0.2h-479.998c-84.023 0-152.381 70.778-152.381 157.774v615.325c0 86.998 68.358 157.775 152.381 157.775h47.619v39.444c0 21.785 17.055 39.444 38.095 39.444s38.095-17.659 38.095-39.444v-39.444h171.428v39.444c0 21.785 17.055 39.444 38.095 39.444s38.097-17.659 38.097-39.444v-39.444h173.334v39.444c0 21.785 17.052 39.444 38.093 39.444s38.098-17.659 38.098-39.444v-39.444h49.523c84.022 0 152.381-70.778 152.381-157.775v-216.941c0-21.785-17.057-39.443-38.098-39.443s-38.093 17.658-38.093 39.443v216.941c0 43.499-34.182 78.888-76.19 78.888h-49.523v-39.444c0-21.785-17.057-39.444-38.098-39.444s-38.093 17.659-38.093 39.444v39.444h-173.334v-39.444c0-21.785-17.057-39.444-38.097-39.444s-38.095 17.659-38.095 39.444v39.444h-171.428v-39.444c0-21.785-17.055-39.444-38.095-39.444s-38.095 17.659-38.095 39.444v39.444h-47.619c-0.382 0-0.763-0.003-1.143-0.009-41.487-0.635-75.047-35.776-75.047-78.879v-615.325c0-43.496 34.179-78.887 76.19-78.887h449.521v161.719c0 87.001 68.359 157.779 152.381 157.779h182.857c15.277 0 29.077-9.455 35.060-24.005 5.978-14.555 2.979-31.403-7.617-42.798l-297.145-319.498zM702.474 75.698l169.477 182.223h-93.286c-42.008 0-76.19-35.387-76.19-78.887v-103.336zM262.476 543.333c-7.472 0-10.667-5.782-10.667-9.321s3.194-9.322 10.667-9.322c7.472 0 10.667 5.782 10.667 9.322s-3.194 9.321-10.667 9.321zM300.571 534.012c0-21.782-17.056-39.441-38.095-39.441s-38.095 17.658-38.095 39.441c0 21.782 17.056 39.44 38.095 39.44s38.095-17.658 38.095-39.44zM428.19 371.785c-7.472 0-10.667-5.783-10.667-9.323 0-3.535 3.194-9.318 10.667-9.318s10.667 5.783 10.667 9.318c0 3.54-3.194 9.323-10.667 9.323zM466.286 362.462c0-21.782-17.056-39.439-38.095-39.439s-38.095 17.657-38.095 39.439c0 21.787 17.056 39.444 38.095 39.444s38.095-17.657 38.095-39.444zM262.476 200.192c-7.472 0-10.667-5.783-10.667-9.323s3.194-9.323 10.667-9.323c7.472 0 10.667 5.783 10.667 9.323s-3.194 9.323-10.667 9.323zM300.571 190.869c0-21.782-17.056-39.439-38.095-39.439s-38.095 17.657-38.095 39.439c0 21.782 17.056 39.439 38.095 39.439s38.095-17.657 38.095-39.439zM262.476 371.785c-7.472 0-10.667-5.783-10.667-9.323 0-3.535 3.194-9.318 10.667-9.318s10.667 5.783 10.667 9.318c0 3.54-3.194 9.323-10.667 9.323zM300.571 362.462c0-21.782-17.056-39.439-38.095-39.439s-38.095 17.657-38.095 39.439c0 21.787 17.056 39.444 38.095 39.444s38.095-17.657 38.095-39.444zM428.19 200.192c-7.472 0-10.667-5.783-10.667-9.323s3.194-9.323 10.667-9.323c7.472 0 10.667 5.783 10.667 9.323s-3.194 9.323-10.667 9.323zM466.286 190.869c0-21.782-17.056-39.439-38.095-39.439s-38.095 17.657-38.095 39.439c0 21.782 17.056 39.439 38.095 39.439s38.095-17.657 38.095-39.439zM428.19 543.333c-7.472 0-10.667-5.782-10.667-9.321s3.194-9.322 10.667-9.322c7.472 0 10.667 5.782 10.667 9.322s-3.194 9.321-10.667 9.321zM466.286 534.012c0-21.782-17.056-39.441-38.095-39.441s-38.095 17.658-38.095 39.441c0 21.782 17.056 39.44 38.095 39.44s38.095-17.658 38.095-39.44z" />
<glyph unicode="&#xe906;" glyph-name="cancel" d="M16.175 943.823c21.567 21.569 56.536 21.568 78.103 0.001l417.72-417.723 417.725 417.722c21.567 21.57 56.53 21.565 78.097 0.002 21.572-21.567 21.572-56.536 0.006-78.103l-417.724-417.723 417.718-417.723c21.572-21.567 21.572-56.536 0.006-78.103-10.786-10.775-24.946-16.174-39.054-16.174s-28.274 5.393-39.054 16.174l-417.719 417.724-417.719-417.724c-10.782-10.775-24.944-16.174-39.052-16.174-14.106 0-28.27 5.393-39.051 16.174-21.569 21.567-21.568 56.536-0.001 78.103l417.721 417.724-417.72 417.72c-21.57 21.568-21.565 56.536-0.001 78.102z" />
<glyph unicode="&#xe907;" glyph-name="cart" d="M409.775 921.489c20.675-12.888 27.064-40.345 14.928-61.359l-148.126-256.499h470.847l-148.127 256.497c-12.135 21.014-5.766 48.458 14.909 61.346 20.989 13.058 47.996 5.787 60.259-15.477l174.611-302.366h174.925v-89.846h-69.818l-77.485-429.319c-9.274-51.616-52.902-89.658-104.333-89.658h-520.73c-51.436 0-95.059 38.042-104.364 89.683l-77.46 429.293h-69.811v89.848h174.922l174.624 302.383c12.29 21.237 39.205 28.525 60.23 15.472zM772.365 84.659c8.666 0 16.64 6.464 18.374 16.16l74.56 412.967h-706.602l74.525-412.916c1.3-4.736 6.802-14.195 18.412-14.195s351.99-1.344 520.73-2.016z" />
<glyph unicode="&#xe908;" glyph-name="check" d="M959.576 640.126l-501.616-501.582c-37.145-37.152-97.401-37.152-134.581 0l-258.937 258.957c-37.159 37.152-37.159 97.415 0 134.574 37.166 37.166 97.418 37.166 134.568 0.014l191.681-191.683 434.296 434.301c37.171 37.166 97.426 37.138 134.576 0 37.157-37.159 37.157-97.401 0.015-134.581z" />
<glyph unicode="&#xe909;" glyph-name="icon-1" d="M179.151-49.050c-23.082 9.968-32.787 23.869-30.164 43.542 2.098 15.476 11.016 25.442 25.18 30.95 17.574 7.082 35.148 13.903 52.722 22.033-2.362 0.264-4.722 0.787-6.821 0.787-16.787 0-33.312 0-50.098 0-14.164 0-21.246 4.722-21.246 14.427s7.082 14.95 20.984 14.95c36.198 0 72.655 0.525 108.853-0.262 19.673-0.525 38.294 1.573 56.13 10.492 8.919 4.459 22.033 5.508 27.017 12.328 4.722 6.819 1.836 19.409 1.836 29.639 0 40.918 0 81.836 0 122.754 0 19.673 2.886 22.557 22.557 23.082 1.836 0 3.935 0.262 6.295 0.524 0 48.262 0 96.263 0 145.836-3.148 0-6.557 0-9.966 0-40.131 0-80.525 0-120.656 0-67.148 0.264-119.607 42.231-133.771 107.542-26.23 120.656-52.721 241.311-78.951 361.967-6.295 29.115 7.082 49.311 35.934 57.443 43.016 12.066 83.672 9.443 120.919-16.262 10.228-7.082 18.885-16 27.541-24.918 6.819-7.344 6.033-16-0.525-21.77-6.295-5.508-15.212-4.721-21.769 2.623-34.099 38.82-75.804 45.115-123.017 30.426-10.229-3.148-13.115-9.443-10.492-21.771 8.393-38.295 16.787-76.59 25.18-114.885 8.393-38.82 17.049-77.901 25.443-116.721 0.525-2.624 1.574-4.984 2.361-7.344 48.263 0 96.525 0 145.575 0-4.46 19.409-8.657 38.032-13.116 56.656-9.966 42.229-20.196 84.459-30.164 126.688-0.262 1.049-0.524 1.836-0.524 2.885-2.098 11.279 1.836 18.885 10.754 20.721 8.132 1.836 15.476-3.41 17.836-13.902 5.508-22.82 10.754-45.902 16.263-68.722 9.704-41.442 19.671-82.623 29.639-124.852 3.935 0 7.344 0 10.754 0 69.771 0 139.279 0 209.049 0 2.886 0 6.033 0.262 8.919-0.262 7.606-1.311 12.59-5.508 12.852-13.639 0.525-8.655-4.197-13.639-12.328-15.214-3.409-0.786-7.081-0.262-10.754-0.262-125.376 0-250.754 0-375.869 0-3.935 0-7.869 0-12.852 0 6.557-29.901 12.852-58.754 19.147-87.869 179.672 0 358.82 0 539.017 0-5.771 34.361-23.082 60.067-53.508 75.279-13.639 6.821-29.641 9.443-44.853 12.328-11.279 2.098-18.098 6.295-18.098 15.212 0 9.181 7.081 14.427 18.36 14.427 65.836-0.262 125.114-56.656 128.262-122.229 1.049-23.082 0.525-46.427 0.264-69.771 0-13.639-3.148-19.673-18.361-37.245 3.148-1.836 6.821-3.411 9.704-6.295 81.836-81.574 163.41-163.41 245.246-244.984 8.655-8.655 15.476-17.836 16.525-30.164 1.835-19.671-7.87-36.983-24.918-45.115-17.574-8.13-36.459-4.72-51.148 9.968-60.589 60.591-121.179 121.179-181.77 181.77-40.656 40.656-81.311 81.574-122.229 122.23-2.624 2.622-6.295 5.77-9.443 5.77-35.41 0.525-70.559 0.262-106.493 0.262 0-48.786 0-97.048 0-145.836 2.886-0.262 5.771-0.524 8.655-0.524 15.738-0.525 19.934-4.722 19.934-20.984 0-34.099 0-67.935 0-102.032 0-14.689 0.264-29.377-0.262-44.066-0.262-6.821 1.836-10.23 8.655-12.59 24.395-8.919 48.788-18.885 73.181-28.328 10.23-3.935 14.165-10.492 11.803-18.623-2.622-9.443-11.277-13.116-22.033-9.181-27.015 10.492-54.032 21.245-81.311 31.737-4.984 1.836-10.754 2.886-16 3.148-19.673 0.264-39.345-1.049-58.754 0.525-30.426 2.098-58.492-4.459-86.296-16-49.048-20.46-98.885-39.083-148.458-58.492-2.36-1.049-5.508-1.311-7.082-2.886-2.36-2.622-5.246-6.557-4.72-9.443 0.524-2.886 4.459-5.508 7.606-7.082 2.098-1.049 5.246-0.262 7.868-0.262 162.099 0 323.935 0 486.034 0 1.573 0 3.671-0.524 4.982 0 3.673 1.836 8.657 3.409 10.23 6.557 2.624 5.246-1.311 8.919-6.557 11.017-14.95 5.77-29.902 11.541-44.591 17.574-2.36 1.049-4.982 1.573-7.081 3.148-6.559 4.197-9.706 9.966-6.821 17.573 2.886 7.87 9.443 11.805 17.049 9.181 20.198-7.344 40.656-14.689 60.067-23.869 13.901-6.557 19.409-19.934 18.098-35.409-1.049-14.689-8.655-24.918-21.771-31.475-2.622-1.313-5.246-2.362-7.868-3.673-173.378-0.787-345.706-0.787-517.771-0.787zM165.512 509.902c1.574-2.886 2.361-4.984 3.672-6.819 20.459-33.050 50.361-51.148 89.181-51.41 139.277-0.525 278.818-0.264 418.098-0.264 2.36 0 5.246-0.786 6.821 0.264 4.459 3.671 11.541 7.606 12.065 12.065 1.575 15.214 0.525 30.426 0.525 46.164-177.050 0-352.788 0-530.361 0zM480.792 104.394c0 47.213 0 93.901 0 141.114-29.377 0-58.23 0-87.346 0 0-47.213 0-93.901 0-141.114 29.115 0 57.968 0 87.346 0zM635.545 422.032c1.311-2.098 1.575-3.148 2.36-3.671 94.952-94.952 189.902-190.164 284.853-285.115 7.606-7.606 16.261-7.868 22.557-1.311 6.033 6.295 5.509 14.95-2.098 22.557-87.868 87.869-175.737 175.739-263.606 263.608-2.36 2.36-6.033 3.933-9.181 3.933-11.277 0.264-22.557 0-34.885 0zM423.348 421.509c0-49.050 0-97.050 0-145.312 9.704 0 18.623 0 28.066 0 0 48.788 0 96.788 0 145.312-9.443 0-18.623 0-28.066 0z" />
<glyph unicode="&#xe90a;" glyph-name="icon-2" d="M1.867 664.533c4.267 7.733 10.4 12.532 19.467 9.6 8.533-2.668 10.133-10.134 10.667-18.401 4-65.865 35.733-113.865 96-141.332 67.2-30.401 134.666-59.733 202.4-89.068 10.667-4.533 16.799-10.667 19.999-22.4 9.334-36.267 20-72.265 29.868-108.532 3.732-13.334-6.134-25.068-17.335-20.535-4.799 2.133-9.6 8.267-11.199 13.6-9.868 32.8-18.934 65.601-27.733 98.668-1.867 7.467-5.333 11.733-12.534 14.665-67.466 29.334-135.467 58.134-202.133 89.6-60.533 28.534-94.933 78.135-105.333 144.268-0.533 2.666-1.333 5.065-1.867 7.467-0.267 7.733-0.267 15.2-0.267 22.4zM1.867 888.266c5.6 7.2 12.8 9.333 21.6 9.067 35.467-1.867 70.933-1.6 106.4-5.067 31.467-2.933 59.467-18.4 87.999-30.933 104.533-45.867 209.067-91.999 313.6-138.134 2.934-1.333 6.134-2.666 8.801-4.533 6.132-4.267 8.265-10.4 5.6-17.333-2.934-7.467-8.801-10.667-16.8-9.068-3.466 0.8-6.932 2.401-10.132 3.734-114.668 50.4-229.067 100.533-343.735 151.2-30.933 13.6-63.2 20.267-96.8 20-17.867-0.267-36 0.267-53.867-0.267-9.067-0.267-17.067 1.6-22.667 9.333 0 4 0 8 0 12zM1.867 301.332c5.067 7.735 12 10.667 21.067 9.868 5.867-0.534 11.733 0 18.667 0 0 10.132 0 19.2 0 28.532 0 23.735 3.733 31.468 15.2 31.201 11.2-0.268 14.667-7.467 14.667-31.734 0-8.8 0-17.867 0-28 8 0 14.933 0.266 22.133 0 10.933-0.268 17.6-6.134 17.6-14.933 0-8.801-6.667-14.667-17.333-14.933-6.933 0-13.867 0-22.4 0 0-14.401 0-28.534 0-42.667 0-7.467-2.667-13.068-9.6-16-9.867-4.267-20 2.932-20.267 14.665-0.267 14.135 0 28.534 0 42.935-13.333 4.533-30.667-5.601-40 11.465 0.267 2.934 0.267 6.134 0.267 9.6zM471.195 400.266c10.399-37.067 20.533-74.134 30.933-111.2 23.999-86.134 47.732-172.001 71.733-258.133 6.134-21.601-1.333-33.601-24.001-37.601-25.332-4.267-46.933 1.335-61.867 24.001-1.067 1.867-2.932 3.732-4.799 4.533-27.733 11.733-45.334 33.867-60.534 58.667-23.999 39.2-37.333 82.668-49.333 126.667-1.333 5.067-2.934 10.132-4.267 15.466-2.668 10.935 0.8 18.401 9.6 20.801 9.066 2.4 15.734-1.867 19.2-12.534 7.733-25.6 14.133-52 23.733-77.066 9.068-23.467 21.333-45.6 33.067-68 4-7.467 10.4-13.6 16-20.533 0 13.332-1.333 25.6 0.266 37.333 2.668 19.732 13.6 35.2 30.401 46.133 5.866 3.734 6.932 7.2 5.067 13.6-23.735 84-46.933 168.267-70.4 252.266-0.534 1.601-0.8 3.2-1.067 4.801-4 14.933 0 25.6 11.199 31.734 11.733 6.132 23.2 2.932 33.067-9.6 26.933-34.401 53.333-68.801 80.534-102.934 8.533-10.667 14.133-21.866 17.599-35.2 14.133-50.133 28.268-100.267 43.733-150.134 9.068-28.532 22.666-55.467 41.6-78.933 2.133-2.4 4-5.065 8.001-6.4-0.268 2.401-0.268 4.801-0.534 7.2-4.799 30.933 5.6 55.733 30.933 73.6 5.333 3.734 6.666 6.666 4.801 12.8-18.133 64.266-35.734 128.534-53.868 192.8-1.333 5.067-4 9.866-7.2 13.867-36.533 46.933-73.066 93.867-109.867 140.8-2.133 2.666-4.267 5.067-5.866 7.999-4 7.2-2.668 13.867 3.466 18.668 6.666 5.333 13.6 4.799 20-0.8 2.666-2.4 4.799-5.6 6.932-8.533 36.801-47.2 73.868-94.133 110.401-141.6 4.799-6.132 8.533-13.599 10.667-21.065 16.266-56.533 31.466-113.335 48.266-169.6 10.134-33.867 24.533-66.133 47.2-93.867 2.133-2.668 4.801-5.333 9.068-9.868-8.8 39.735 2.666 69.067 35.732 89.6-10.399 37.333-20.533 74.4-30.933 111.468-10.399 37.866-20.799 75.467-31.732 113.067-1.867 6.4-5.067 13.066-9.334 18.4-30.401 39.467-61.334 78.667-92 118.134-24.267 31.2-38.934 66.133-42.667 105.6-0.268 3.466-3.734 7.467-6.668 9.334-6.132 3.732-13.332 5.866-19.999 9.066-9.334 4.533-13.068 12-9.6 20 3.466 8.533 11.733 11.467 21.6 7.2 31.734-13.6 63.2-27.733 94.933-41.6 54.4-24.001 108.8-48 163.2-71.735 32.8-14.133 48.266-38.932 48.266-74.399 0-109.334 0-218.935 0-328.267 0-26.667-11.199-36.267-37.333-32.534-1.867 0.268-3.732 0.534-6.932 1.067 6.666-24.265 13.066-47.466 19.732-70.932 2.133-7.733 4.533-15.2 6.4-22.934 3.2-13.599-3.732-25.6-17.067-29.599-26.933-8.267-57.866-0.8-70.4 22.4-0.8 1.599-2.4 3.2-4 3.999-10.933 6.668-22.132 13.068-33.067 19.734 3.468-12.268 6.934-25.334 10.667-38.4 5.333-20-2.4-32.266-22.932-36-25.866-4.799-48.266 0.534-63.468 24.267-1.067 1.867-2.932 3.732-5.065 4.533-26.4 11.201-43.733 32-58.4 55.467-25.068 40.001-38.666 84.267-50.934 129.333-8.533 31.734-17.333 63.468-26.4 94.933-1.067 4-2.932 8.267-5.333 11.467-21.6 28-43.465 55.733-65.067 83.466-1.067 1.601-1.865 3.468-2.932 5.067-0.8-0.266-1.601-0.8-2.133-1.333zM875.994 309.866c0 65.333-0.266 129.333 0.266 193.601 0.268 24.265-9.866 39.999-32.266 49.599-62.933 26.933-125.332 54.934-188 82.4-2.934 1.335-5.868 2.401-9.6 4 0-2.666-0.266-4 0-5.333 0.266-2.4 0.8-4.533 1.333-6.932 5.868-25.068 17.067-47.468 32.8-67.468 31.2-39.733 62.399-79.466 93.066-119.733 5.6-7.2 9.866-15.734 12.534-24.533 12.534-43.733 24.533-87.733 36.799-131.466 0.8-3.2 2.133-6.4 3.734-11.201 12 20 28 31.734 49.333 37.067zM875.462 174.133c0 34.4 0 68.533 0 102.666-14.933-3.732-26.4-18.133-27.201-35.2-0.532-12.534-0.266-25.066-0.266-37.866 0-20 6.134-26.667 27.467-29.6zM517.062 122.667c-14.401-9.868-20.801-25.868-17.067-42.134 3.2-13.867 7.199-27.467 11.199-41.334 4.267-14.665 17.601-20.799 33.333-15.2-9.066 32.8-18.133 65.601-27.465 98.668zM744.262 22.932c-9.334 33.601-18.401 66.668-28.001 100.801-14.133-12.268-20.267-26.134-16.532-43.201 2.666-12.266 6.4-24.267 9.866-36.533 5.067-18.934 12.268-23.467 34.668-21.067zM829.061 150.132c-15.2-12.8-20.267-27.733-16.266-44.8 3.2-13.867 7.2-27.733 11.467-41.332 4.267-13.334 18.666-19.2 32.266-13.068-8.8 32.534-17.867 65.067-27.467 99.2zM261.342 580.801c9.066 0 16.266 0.266 23.733 0 9.334-0.268 15.734-5.868 16.266-14.135 0.534-8.533-6.134-15.2-15.734-15.732-7.467-0.268-15.2 0-23.999 0 0-14.933 0.8-29.068-0.534-43.201-0.532-5.333-4.799-12-9.066-14.667-3.466-2.133-11.201-0.266-15.2 2.401-3.2 2.4-4.801 8.532-5.067 13.066-0.534 13.599-0.266 27.199-0.266 42.132-7.735 0-14.933 0-22.134 0-11.467 0.268-18.133 6.134-17.867 15.734 0.266 9.066 6.666 14.133 17.867 14.401 6.932 0 13.867 0 21.866 0 0 14.399 0 28 0 41.332 0 12.001 5.333 18.4 14.667 18.4s14.933-6.398 15.2-18.132c0.534-13.334 0.268-26.935 0.268-41.6zM954.132 808.266c-9.066 0-16.799-0.267-24.265 0-9.334 0.267-15.468 6.667-15.468 14.933s6.134 14.4 15.468 14.933c7.733 0.267 15.2 0 24.265 0 0 14.667-0.266 28.8 0 42.933 0.268 11.2 7.735 18.667 17.335 16.8 8.8-1.867 12.534-8 12.534-16.8 0-13.867 0-27.733 0-42.933 8.265 0 15.732 0.267 23.465 0 9.868-0.267 16.534-6.4 16.534-14.933s-6.4-14.667-16.534-14.933c-7.199-0.267-14.665 0-23.465 0 0-14.667 0.266-28.801 0-42.934-0.268-10.933-7.2-17.867-16.534-16.8-8.001 0.8-13.334 7.2-13.334 17.067 0 13.867 0 27.734 0 42.668zM788.803 782.667c0-25.068-20-44.534-45.066-44.534-24.533 0.266-44.268 20-44.534 44.534s20.533 45.333 45.066 45.333c24.533-0.267 44.534-20.533 44.534-45.333zM743.736 797.867c-8.001-0.267-14.933-7.733-14.401-15.734 0.534-7.999 7.2-13.867 15.2-13.867 8.533 0.266 14.667 6.934 14.401 15.468-0.534 8-7.467 14.133-15.2 14.133zM216.267 191.2c-25.068 0-44.8 20-44.8 45.066 0 24.267 19.999 44.268 44.266 44.8 24.533 0.266 45.334-20.267 45.6-44.8 0.266-24.8-20-45.066-45.066-45.066zM231.467 236.266c-0.266 8.267-7.733 15.2-15.734 14.667-7.999-0.534-14.133-7.2-13.867-15.2 0.266-8.533 7.2-14.667 15.734-14.401 7.467 0.266 13.867 7.2 13.867 14.933z" />
<glyph unicode="&#xe90b;" glyph-name="icon-3" d="M1.867 279.2c4.8 8.001 11.733 10.134 21.067 10.134 70.4-0.268 141.067 0 211.467-0.268 77.332-0.266 143.466 25.6 197.065 82.401 30.933 32.799 63.468 64.532 95.201 96.799 2.133 2.133 3.999 4.267 7.999 8.533-16.532 16-33.067 31.734-49.599 47.734-5.067 4.801-10.134 9.866-14.667 14.933-9.6 10.4-7.733 21.333 5.333 26.933 22.666 10.134 45.867 19.468 68.533 29.867 37.333 17.335 74.4 35.2 111.468 53.067 10.667 5.067 18.666 3.734 23.199-4.533 4.535-8.267 1.601-16.8-9.066-21.868-50.133-23.733-100.533-46.933-150.666-70.132-4-1.867-8.267-3.734-13.6-6.134 55.733-54.4 110.399-107.733 165.067-161.333 0.532 1.067 2.133 4.533 3.732 7.733 26.933 55.2 51.734 111.466 81.067 165.333 38.934 71.467 93.6 131.466 150.934 188.8 25.066 25.066 50.4 50.4 75.465 75.466 2.668 2.667 5.333 5.067 7.467 8 6.668 9.6 6.134 21.6-1.067 30.667-7.199 8.8-19.2 12-29.599 6.933-5.067-2.4-9.334-6.133-13.334-10.133-54.666-52.267-108.534-105.067-163.732-156.8-16.268-15.468-35.468-28.268-53.333-41.6-8.533-6.4-17.867-5.067-22.934 2.4-5.067 7.2-3.466 15.468 5.067 21.6 61.867 43.733 115.2 97.335 168.533 150.934 15.466 15.467 30.933 31.2 46.667 46.667 24.8 24.533 59.199 26.133 81.865 3.733 22.934-22.933 21.868-56.8-2.932-81.867-41.334-41.867-83.2-83.467-123.733-126.133-67.734-71.2-116.801-154.667-156.268-244-11.467-26.132-22.932-52.267-34.4-78.399-7.2-16.534-17.601-18.4-30.401-5.6-20.799 20.533-41.6 41.066-61.599 60.8-40.001-39.2-80.268-78.933-122.667-120.533 5.065 0 8.265 0 11.199 0 34.133 0 68.533 0 102.666 0 25.068 0 38.668-14.401 37.868-39.467-0.8-26.935-7.733-51.734-24.533-73.334-13.066-16.8-29.867-26.933-50.668-30.933-3.466-0.8-7.733-2.934-9.066-5.868-39.733-73.332-104.001-112.266-182.666-131.732-59.467-14.667-120.001-18.4-181.067-18.4-52.267 0-104.533 0.266-156.8 0-9.067 0-16.267 2.133-20.533 10.667 0 3.2 0 6.666 0 9.866 5.333 7.999 13.333 9.6 22.4 9.6 50.133-0.266 100.533 0 150.667 0 63.734 0 126.933 3.2 188.8 20.267 57.066 15.734 106.132 43.467 140.266 93.6 1.867 2.932 3.734 5.866 6.4 10.667-5.333 0-9.066 0-12.532 0-53.601 0-106.935 0-160.534 0-41.6 0-73.334 18.4-93.066 54.4-9.866 18.4-15.2 39.199-22.4 58.933 0.8 0.532 1.599 1.333 2.4 1.867-3.466 0-7.2 0-10.667 0-63.466 0-126.933 0.266-190.4-0.268-9.067 0-16.267 2.133-21.067 10.134-0.267 3.466-0.267 6.666-0.267 9.866zM255.2 259.734c0.8-5.333 1.333-9.334 2.4-13.6 10.4-48.8 39.467-72.267 89.068-72.267 61.066 0 122.4 0 183.467 0 32.532 0 51.732 13.6 61.6 44.534 3.2 9.866 3.999 20.801 5.866 31.2 1.333 7.467-2.133 9.868-9.334 9.868-45.332-0.268-90.399 0-135.733-0.268-4 0-9.066-2.133-12-5.065-16-15.468-31.734-31.201-47.468-46.933-9.066-8.801-17.333-9.6-24.265-2.668-6.4 6.666-5.333 15.2 2.932 23.733 18.401 18.401 36.535 36.801 55.2 54.934 9.068 9.066 18.668 17.599 28.268 26.667-2.668 3.2-4 4.533-5.333 6.134-4.801 5.333-9.868 10.933-14.933 16.799-52-46.133-112-68.799-179.734-73.066zM473.334 334.933c34.133 33.335 67.732 66.133 100.533 98.401-6.134 6.4-12.8 12.8-16.534 16.799-33.865-32-67.999-64.532-102.132-97.067 6.932-6.932 13.332-13.332 18.133-18.133z" />
<glyph unicode="&#xe90c;" glyph-name="icon-4" d="M925.839 668.328c-2.854-1.541-1.536-4.401-1.536-6.383-2.414-40.93-6.367-81.422-16.027-121.474-9-36.75-21.734-71.741-43.468-103.21-23.272-33.448-55.105-53.694-94.62-61.836-51.373-10.784-100.768-5.941-147.75 18.264-9.878 5.063-18.441 11.664-27.662 19.806-7.025-12.324-14.049-23.766-20.196-35.87-29.418-57.656-46.323-119.494-54.884-183.533-4.392-33.669-6.588-67.559-6.806-101.449 0-13.863-6.585-22.005-17.783-22.667-9.439-0.66-17.342 5.282-19.099 14.746-0.658 3.52-0.878 7.041-0.878 10.342-0.218 62.277-3.95 124.334-13.392 185.733-9.66 61.617-25.247 121.474-50.274 178.47-1.318 3.081-2.414 6.601-5.489 9.243-30.076-16.505-62.566-23.768-96.377-24.207-46.321-0.66-89.79 8.802-125.355 41.151-21.954 20.027-36.663 45.334-48.078 72.62-17.783 43.354-25.905 88.685-30.516 134.899-3.513 35.21-4.83 70.419-4.83 105.629 0 14.744 7.025 22.226 21.295 22.226 55.543-0.22 111.086-2.641 165.97-13.424 38.637-7.702 75.519-19.365 109.768-39.831 47.2-28.168 71.129-70.639 77.057-124.335 4.39-38.73-0.221-76.142-15.148-112.23-4.831-11.885-11.196-23.327-19.54-33.23-2.854-3.302-2.633-5.723-0.876-9.243 28.319-58.097 45.224-119.933 56.199-183.312 0.878-4.84 1.757-9.462 2.635-14.304 0.221-1.099 0.66-1.98 1.318-3.52 9.878 36.529 22.612 71.079 39.297 104.309 8.781 17.165 18.441 34.111 29.198 49.953 2.417 3.523 2.635 5.944 0.878 10.124-25.466 61.397-27.441 122.794 2.417 183.312 15.585 31.689 43.028 51.714 73.544 67.338 41.711 21.347 86.498 31.249 132.38 37.191 40.614 5.282 81.228 6.822 122.063 7.262 11.635 0.22 20.855-2.421 26.123-13.644 0-15.185 0-30.149 0-45.332-1.975-1.541-2.414-3.302 0-4.842 0.439-5.061 0.439-9.903 0.439-14.743zM597.634 479.293c1.975 2.863 2.854 3.962 3.732 5.063 32.711 37.849 71.348 68.219 114.818 92.645 10.317 5.723 20.416 11.883 31.612 15.624 12.513 4.403 23.272-1.98 25.686-14.083 1.757-8.802-1.975-15.403-12.734-20.466-34.905-16.944-67.397-37.629-96.595-63.597-17.124-15.185-32.711-31.689-46.76-49.953 7.025-8.583 15.367-14.304 24.587-18.926 35.783-17.606 73.325-20.906 112.183-14.743 31.614 5.061 58.616 18.484 77.936 45.111 12.734 17.606 22.394 36.532 29.418 56.998 18.441 53.034 23.491 108.050 25.905 163.505 0.439 10.563 0 21.345 0 32.349-40.396-0.221-80.789-2.86-120.964-9.023-36.225-5.723-71.568-14.086-104.28-31.029-24.369-12.764-46.542-28.167-58.616-54.135-20.419-43.572-19.101-88.025-5.928-135.339zM417.394 529.688c1.757 3.081 2.854 4.842 3.732 6.822 18.66 39.611 21.734 80.982 12.295 123.674-6.588 29.93-22.612 53.476-48.299 70.64-21.295 14.305-44.785 24.208-69.373 31.25-54.666 15.624-110.867 19.806-167.288 20.906-3.293 0-7.025 1.1-10.538-0.88 1.098-42.252 3.073-84.285 9.879-126.096 5.708-34.329 13.831-67.998 29.857-99.028 12.953-25.306 29.198-47.753 55.983-60.077 36.004-16.505 73.544-17.824 111.743-10.342 15.148 3.081 29.858 7.7 43.028 16.063-9.221 16.286-19.538 31.029-30.515 45.334-24.587 31.908-55.105 57.217-88.253 79.663-4.61 3.081-9.221 6.601-13.392 10.342-7.905 7.261-8.342 18.266-1.757 26.187 6.146 7.482 16.464 8.583 25.247 2.421 5.047-3.52 9.878-7.261 14.928-10.784 29.858-20.464 57.738-43.131 81.228-70.64 15.806-17.383 28.54-35.87 41.492-55.455zM925.851 682.851c-2.414 1.541-1.975 3.3 0 4.84 0-1.541 0-3.3 0-4.84z" />
<glyph unicode="&#xe90d;" glyph-name="icon-5" d="M57.578 409.413c0 24.881 0 49.762 0 74.643 2.89 0.223 1.778 2.444 1.778 4 1.778 17.326 4.001 34.654 7.779 51.76 20.226 93.971 64.9 174.833 136.023 239.701 108.462 99.079 236.484 137.733 381.84 116.185 87.349-12.885 164.029-50.206 229.817-109.298 88.014-79.087 138.468-177.721 150.913-295.46 7.78-74.866-1.777-148.175-32.226-217.042-68.456-155.505-186.698-248.363-354.504-277.245-10.224-1.777-20.669-1.11-30.672-4.886-23.78 0-47.341 0-71.122 0-0.444 2.665-2.667 1.554-4.221 1.777-40.896 3.554-80.903 11.551-118.909 26.879-168.251 69.088-266.934 193.272-293.383 373.658-0.889 5.111 0.445 10.886-3.112 15.328zM677.681 309.446c0.444-0.887 0.667-2.444 2.223-1.333 1.333 0.89 0 1.777-0.446 2.667-17.781 31.323-35.56 62.646-53.341 93.969-1.333 2.444-2.667 4.444-6.001 4.221-13.558-0.223-26.895 0-40.673 0 0.444-1.554 0.221-2.221 0.667-2.444 32.449-32.433 64.899-64.646 97.571-97.080zM819.926 166.826c150.248 160.616 152.469 426.751-28.005 589.144-181.362 163.281-429.181 124.627-557.202-0.444 67.343-67.534 134.911-134.845 201.589-201.712 0 38.876 0 79.308 0 120.183-2.446 0.667-4.669 1.331-6.89 2.221-8.224 3.331-12.447 11.107-11.114 19.993 1.11 8.219 7.334 15.328 15.781 15.328 52.454 1.11 104.905 1.11 157.359 0 8.445-0.221 14.448-7.33 15.558-15.772 1.11-8.663-3.111-16.218-10.668-19.549-2.446-1.11-4.89-1.554-7.557-2.444 0-40.209 0-79.751 0-119.517 0-5.555 1.333-10.22 4-15.107 44.897-78.418 89.793-156.838 134.688-235.256 9.114-15.995 14.891-32.88 12.004-51.539-0.446-3.777 0.667-5.998 3.334-8.442 25.559-25.548 51.118-51.095 77.123-77.087zM721.244 209.479c-16.004-17.995-36.229-27.992-61.121-27.992-98.017 0-196.255 0-294.273 0-18.002 0-34.673 4.665-48.897 15.774-34.004 26.879-41.34 67.088-19.558 105.299 38.673 67.978 77.569 135.955 116.465 203.933 1.333 2.444 2.888 4.888 3.554 6.444-71.566 71.309-142.245 141.954-213.146 212.819-147.358-157.061-152.914-422.976 28.45-587.366 180.251-163.28 428.291-126.405 558.758 0.667-23.338 23.547-46.674 46.874-70.233 70.422zM694.349 237.691c-0.444 0.667-0.667 1.333-1.11 1.777-55.344 55.316-110.685 110.633-165.806 165.947-2.667 2.667-5.557 3.777-9.557 3.777-36.45 0-72.9-0.223-109.35 0-5.336 0-7.78-1.777-10.224-6.221-8.003-14.661-16.671-29.323-24.895-43.986-14.445-25.325-29.339-50.649-43.563-76.197-16.668-30.213 1.333-63.313 35.119-63.313 98.461-0.444 196.699-0.223 295.16 0 14.224 0 26.003 5.998 34.227 18.216zM465.424 521.157c24.449-24.437 48.007-48.208 71.789-71.755 1.556-1.556 3.111-2.444 5.334-2.444 19.335 0 38.896 0 59.344 0-15.56 27.102-30.228 53.316-45.343 79.085-4.221 7.109-6.224 14.441-6.224 22.66 0.223 20.66 0 41.32 0 62.202s0 41.766 0 62.869c-25.559 0-50.451 0-75.567 0 0-39.099-0.223-77.53 0-115.962 0.444-13.107 0.223-25.771-9.334-36.655zM482.982 446.958c-12.67 12.663-25.115 25.104-37.786 37.765-6.667-11.774-14.001-24.437-21.559-37.765 20.892 0 40.453 0 59.344 0z" />
<glyph unicode="&#xe90e;" glyph-name="menu" d="M1024 624.371h-1024v47.629h1024v-47.629zM1024 424.186h-1024v47.629h1024v-47.629zM704 224h-704v47.629h704v-47.629z" />
<glyph unicode="&#xe90f;" glyph-name="icon-6" d="M-4.289 491.347c3.199 20.532 5.599 41.333 10.131 61.866 37.057 166.134 170.356 290.934 338.579 317.601 221.275 35.2 429.22-112.267 469.743-333.068 0.801-4.533 1.6-9.066 2.132-13.865 1.6-12.534-4.531-21.602-15.995-23.734-10.663-1.866-19.729 5.6-22.66 17.333-6.399 25.866-13.064 51.466-19.995 77.066-1.333 5.068-3.998 9.867-5.866 14.934-21.060-5.334-42.389-9.334-62.382-16.8-9.865-3.734-18.396-12.8-25.862-20.801-7.996-8.8-13.863-19.465-21.593-28.799-26.128-31.466-66.116-31.999-93.309-1.6-6.399 7.2-12.263 14.934-18.396 22.401-8.531 10.932-19.461 16.532-33.326 17.067-22.926 0.799-45.855 1.333-68.515 3.466-19.995 1.868-36.523 10.934-43.723 31.2-7.464 21.333-3.199 41.067 12.263 57.333 8.8 9.334 19.463 17.067 29.327 25.334 5.065 4.267 10.397 8.267 15.196 13.066 7.464 7.202 10.929 16.002 7.464 26.401-3.998 12-7.73 24-12.529 35.733-7.732 19.733-14.397 39.467-10.932 62.667-77.578 2.667-148.76-15.467-213.81-56-81.845-50.933-135.165-123.999-163.691-218.401 5.332 1.868 8.531 2.933 11.73 4.267 40.789 15.467 82.912 24.535 126.9 18.666 13.596-1.866 27.46-5.332 39.99-11.198 38.124-17.335 50.653-56.534 30.924-93.334-3.732-6.934-7.996-13.867-12.529-20.266-6.665-10.133-8.265-20.801-4.264-32.267 10.929-33.066 9.064-65.333-6.133-96.8-7.998-16.8-2.132-26.401 16.796-28.799 15.729-2.134 31.724-2.667 47.721-5.068 62.651-8.8 88.244-76.8 68.781-125.866-9.064-22.935-23.993-41.067-42.389-57.069-3.998-3.466-8.263-6.665-12.263-10.133 50.92-27.466 199.682-13.066 260.198 25.334-21.593 31.733-28.258 66.933-23.727 104.534 5.6 44.799 24.794 84 54.386 117.867 64.785 74.399 147.695 104.266 245.005 96.265 44.255-3.732 86.644-15.198 123.968-39.733 13.863-9.066 26.658-21.067 36.789-34.133 13.865-17.865 9.598-31.2-9.33-42.933-0.266-0.266-0.532-0.532-0.801-0.532-41.588-19.467-64.248-54.133-78.113-96.001-13.062-39.467-30.925-76.534-57.851-108.533-40.789-48.533-91.709-76.001-156.758-71.466-36.791 2.398-69.848 15.999-98.641 38.666-5.065 4-8.531 5.065-14.664 1.866-168.489-83.199-364.972-46.667-491.338 92.267-62.117 68-95.708 149.067-104.506 240.799-0.267 3.202-1.066 6.401-1.866 9.601-0.267 17.599-0.267 35.467-0.267 53.601zM601.154 159.346c2.398 4.267 4.264 7.2 5.864 10.133 26.128 45.602 57.053 87.468 96.509 122.402 10.397 9.332 21.329 17.865 32.791 25.866 9.066 6.399 20.262 4 26.66-4.533 6.133-8.267 4.799-19.734-3.466-26.933-2.667-2.401-5.864-4.535-8.797-6.667-53.052-40.801-90.911-93.334-121.836-153.068 29.325-23.466 62.384-35.733 99.708-33.599 45.32 2.667 79.178 26.132 106.906 60.266 24.526 30.399 39.19 65.866 52.251 102.4 15.465 43.199 39.991 79.201 81.312 102.134 0.801 0.532 1.067 1.6 2.134 3.199-6.399 4.799-12.531 10.133-19.463 14.133-76.78 42.4-156.492 48.001-236.471 12.268-62.384-27.734-106.107-74.668-123.435-142.668-7.198-28.533-5.864-57.066 9.332-85.333zM161.801 549.481c-37.057-2.667-71.181-12.001-104.506-26.401-15.196-6.667-21.061-15.999-21.328-32.267-4.799-159.733 60.518-279.998 200.481-358.4 27.725-15.733 28.26-14.932 54.12 4.535 17.595 13.066 32.525 28.265 41.056 49.066 10.397 25.866-2.132 69.866-42.123 73.066-11.997 0.801-23.727 2.134-35.724 3.202-53.319 4.267-75.446 46.132-53.319 88.799 10.397 20 11.197 40.801 3.999 61.868-9.064 26.132-5.065 50.399 10.664 72.8 2.399 3.466 4.799 7.2 6.932 10.934 11.197 19.199 6.398 35.733-14.663 42.933-14.663 4.799-30.392 6.665-45.588 9.867zM734.451 644.947c-2.132 4.267-3.199 6.665-4.799 8.8-56.784 92.533-138.097 150.933-244.201 174.667-22.396 5.067-25.593 1.067-19.197-21.333 1.067-3.734 2.401-7.467 3.734-11.2 4.264-11.2 8.797-22.133 12.795-33.6 13.33-38.667 5.866-64.267-26.126-89.867-9.066-7.2-18.396-14.4-27.193-21.866-6.133-5.068-11.997-12.534-7.732-19.734 2.667-4.533 11.198-7.466 17.328-8.001 19.197-1.6 38.391-1.6 57.851-2.398 26.927-0.801 48.522-12.001 65.051-33.335 5.065-6.667 10.131-13.066 15.729-19.467 11.464-13.066 24.26-12.531 34.925 1.333 5.864 7.735 11.462 15.467 16.794 23.468 16.796 24.267 39.724 38.666 68.517 44 12.263 2.667 23.993 5.866 36.523 8.533z" />
<glyph unicode="&#xe910;" glyph-name="location" d="M486.4 480c-53.024 0-96 42.976-96 96s42.976 96 96 96c53.024 0 96-42.976 96-96s-42.976-96-96-96zM486.4 736c-88.352 0-160-71.616-160-160s71.648-160 160-160c88.352 0 160 71.616 160 160s-71.648 160-160 160zM486.4 31.997c-53.216-0.287-320 410.212-320 544.003 0 176.704 143.264 320 320 320s320-143.296 320-320c0-132-267.616-544.29-320-544.003zM486.4 960c-212.064 0-384-171.936-384-384 0-160.576 320.16-640.355 384-640 62.848-0.355 384 481.6 384 640 0 212.064-171.936 384-384 384z" />
<glyph unicode="&#xe911;" glyph-name="phone" d="M809.267 325.669c-20.964 21.83-46.252 33.499-73.053 33.499-26.582 0-52.084-11.455-73.914-33.285l-68.291-68.077c-5.618 3.025-11.241 5.837-16.64 8.643-7.782 3.891-15.132 7.568-21.397 11.455-63.972 40.634-122.111 93.584-177.87 162.095-27.015 34.146-45.17 62.89-58.353 92.066 17.722 16.209 34.147 33.067 50.14 49.276 6.051 6.052 12.103 12.319 18.154 18.371 45.386 45.386 45.386 104.171 0 149.557l-59.001 59.001c-6.7 6.7-13.616 13.615-20.1 20.532-12.967 13.4-26.583 27.231-40.631 40.199-20.964 20.748-46.034 31.77-72.401 31.77s-51.869-11.022-73.481-31.77c-0.216-0.216-0.216-0.216-0.432-0.432l-73.481-74.13c-27.664-27.664-43.441-61.379-46.899-100.497-5.187-63.108 13.4-121.893 27.664-160.363 35.012-94.445 87.313-181.974 165.333-275.773 94.662-113.031 208.558-202.291 338.662-265.183 49.711-23.557 116.061-51.437 190.189-56.19 4.538-0.214 9.29-0.433 13.615-0.433 49.925 0 91.853 17.939 124.705 53.597 0.214 0.433 0.647 0.652 0.861 1.080 11.241 13.619 24.208 25.935 37.823 39.121 9.295 8.862 18.804 18.153 28.095 27.881 21.397 22.258 32.638 48.193 32.638 74.775 0 26.801-11.455 52.517-33.285 74.133l-118.649 119.082zM886.635 98.090c-0.214 0-0.214-0.214 0 0-8.425-9.076-17.073-17.287-26.363-26.363-14.047-13.4-28.314-27.448-41.714-43.227-21.83-23.343-47.546-34.365-81.259-34.365-3.244 0-6.703 0-9.942 0.219-64.191 4.105-123.839 29.175-168.578 50.572-122.324 59.22-229.736 143.29-318.995 249.837-73.698 88.827-122.974 170.952-155.608 259.131-20.099 53.814-27.447 95.742-24.205 135.293 2.161 25.286 11.887 46.25 29.825 64.188l73.698 73.698c10.59 9.942 21.828 15.345 32.85 15.345 13.615 0 24.638-8.212 31.554-15.129 0.216-0.216 0.432-0.432 0.648-0.648 13.184-12.319 25.719-25.070 38.902-38.686 6.7-6.916 13.615-13.832 20.532-20.964l59.001-59.001c22.909-22.909 22.909-44.089 0-66.998-6.268-6.267-12.319-12.535-18.587-18.587-18.155-18.587-35.444-35.876-54.247-52.734-0.432-0.432-0.864-0.648-1.081-1.081-18.587-18.587-15.128-36.741-11.238-49.060 0.216-0.648 0.432-1.297 0.648-1.945 15.345-37.171 36.957-72.187 69.807-113.897l0.216-0.214c59.649-73.481 122.541-130.755 191.919-174.629 8.858-5.618 17.934-10.156 26.582-14.48 7.778-3.891 15.127-7.564 21.397-11.455 0.861-0.433 1.727-1.080 2.593-1.513 7.345-3.672 14.262-5.404 21.397-5.404 17.934 0 29.175 11.241 32.847 14.913l73.914 73.914c7.35 7.35 19.018 16.212 32.638 16.212 13.396 0 24.418-8.429 31.12-15.779 0.214-0.214 0.214-0.214 0.433-0.433l119.082-119.082c22.263-22.044 22.263-44.739 0.214-67.649zM553.379 716.419c56.623-9.509 108.060-36.309 149.122-77.372 41.067-41.063 67.649-92.501 77.373-149.124 2.378-14.266 14.699-24.208 28.746-24.208 1.727 0 3.24 0.219 4.971 0.433 15.993 2.597 26.582 17.725 23.99 33.717-11.674 68.511-44.093 130.97-93.584 180.462s-111.951 81.91-180.461 93.581c-15.993 2.594-30.902-7.997-33.713-23.773s7.564-31.122 23.557-33.715zM1022.79 508.292c-19.237 112.815-72.401 215.474-154.098 297.168-81.692 81.694-184.353 134.86-297.165 154.095-15.779 2.81-30.692-7.997-33.499-23.773-2.597-15.993 7.997-30.906 23.99-33.715 100.71-17.074 192.563-64.837 265.612-137.67 73.048-73.049 120.599-164.901 137.672-265.614 2.378-14.263 14.694-24.205 28.742-24.205 1.731 0 3.244 0.214 4.971 0.433 15.779 2.378 26.582 17.506 23.775 33.282z" />
<glyph unicode="&#xe912;" glyph-name="search" d="M0 533.903c0 234.885 190.988 426.097 426.097 426.097 234.883 0 426.094-190.988 426.094-426.097 0-101.76-35.816-195.29-95.527-268.657l224.497-224.497c16.962-16.962 16.998-44.809 0.102-61.813-8.608-8.879-20.070-13.059-31.057-13.059-11.282 0-22.588 4.596-30.955 12.963l-224.497 224.497c-73.367-59.711-166.897-95.533-268.657-95.533-234.89 0-426.097 191.211-426.097 426.1zM426.097 929.882c-218.465 0-395.979-177.718-395.979-395.98 0-218.258 177.723-395.982 395.979-395.982 99.249 0 190.038 36.641 259.652 97.196l10.601 9.216 244.2-244.2c2.747-2.747 6.409-4.138 9.656-4.138 3.512 0 6.963 1.343 9.463 3.939l0.193 0.205c5.234 5.234 5.24 14.077 0.006 19.311l-244.2 244.2 9.216 10.601c60.555 69.614 97.19 160.403 97.19 259.651 0 218.466-177.712 395.98-395.977 395.98zM425.883 872.17c-186.414 0-338.268-151.651-338.268-338.268 0-186.628 151.865-338.481 338.268-338.481 186.601 0 338.268 152.058 338.268 338.481 0 186.414-151.654 338.268-338.268 338.268zM57.498 533.903c0 203.262 165.349 368.385 368.385 368.385 203.262 0 368.385-165.349 368.385-368.385 0-203.024-165.111-368.599-368.385-368.599-203.048 0-368.385 165.352-368.385 368.599zM30.118 533.903c0-218.258 177.723-395.982 395.979-395.982 99.249 0 190.038 36.641 259.652 97.196l10.601 9.216 244.2-244.2c2.747-2.747 6.409-4.138 9.656-4.138 3.512 0 6.963 1.343 9.463 3.939l0.193 0.205c5.234 5.234 5.24 14.077 0.006 19.311l-244.2 244.2 9.216 10.601c60.555 69.614 97.19 160.403 97.19 259.651 0 218.466-177.712 395.98-395.977 395.98-218.465 0-395.979-177.718-395.979-395.98zM57.498 533.903c0 203.262 165.349 368.385 368.385 368.385 203.262 0 368.385-165.349 368.385-368.385 0-203.024-165.111-368.599-368.385-368.599-203.048 0-368.385 165.352-368.385 368.599z" />
<glyph unicode="&#xe913;" glyph-name="star" d="M512 917.333l150.473-304.892 336.469-48.892-243.473-237.325 57.476-335.108-300.945 158.217-300.946-158.217 57.475 335.108-243.47 237.325 336.468 48.892 150.473 304.892z" />
<glyph unicode="&#xe914;" glyph-name="time" d="M694.422 357.594l-142.776 107.080v218.124c0 21.932-17.728 39.66-39.66 39.66s-39.66-17.728-39.66-39.66v-237.956c0-12.491 5.87-24.272 15.864-31.728l158.636-118.978c7.138-5.354 15.468-7.932 23.755-7.932 12.098 0 23.997 5.434 31.766 15.903 13.175 17.492 9.605 42.358-7.926 55.486zM512 960c282.337 0 512-229.666 512-512 0-282.337-229.663-512-512-512-282.334 0-512 229.663-512 512 0 282.334 229.666 512 512 512zM79.318 448c0-238.551 194.133-432.681 432.682-432.681 238.551 0 432.681 194.13 432.681 432.681 0 238.55-194.089 432.682-432.681 432.682-238.55 0-432.682-194.133-432.682-432.682z" />
</font>
</defs>
</svg>
